Witaj Gościu! jeżeli widzisz ten dymek to znaczy że nie jesteś zarejestrowany/zalogowany. Kliknij by się zarejestrować. Rejestracja zajmie mniej niż 30 sekund, a dzięki niej zyskasz możliwość pobierania, komentowania oraz dodawania torrentów !



User:      Hasło:     

MENU


Kategorie


FACEBOOK


PROGRAMY


WspółPraca
Poradnik
KAN


ZAGŁOSUJ NA NAS


Torrent



Torrent: Ceremonia otwarcia UEFA Euro 2016-Opening Ceremony Uefa Euro 2016 [2016] [TVRip] [Xvid-torentup][Lektor PL]
Dodał:  TANGO
Data: 24-12-2016
Rozmiar: 150.18 MB
Seed: 1
Peer: 0
Kondycja:
Zaloguj się aby pobrać


Kategoria:  Sport

Zaakceptował: Nie wymagał akceptacji
Liczba pobrań: ---
Liczba komentarzy: 0
Ostatnia aktualizacja: 2016-12-24 12:47:40

OPIS:



Ceremonia otwarcia Euro 2016 we Francji

? POLSKI KOMENTARZ  

? JAKOŚĆ HD !!!!

...( Dane Techniczne )...


Format                         : MPEG-4
Format profile                 : Base Media
Codec ID                       : isom
File size                      : 150 MiB
Duration                       : 10mn 30s
Overall bit rate mode          : Variable
Overall bit rate               : 1 996 Kbps
Encoded date                   : UTC 2016-06-10 19:02:11
Tagged date                    : UTC 2016-06-10 19:02:11
Writing application            : Lavf53.21.1

Video
ID                             : 1
Format                         : AVC
Format/Info                    : Advanced Video Codec
Format profile                 : [email protected]
Format settings, CABAC         : Yes
Format settings, ReFrames      : 3 frames
Codec ID                       : avc1
Codec ID/Info                  : Advanced Video Coding
Duration                       : 10mn 30s
Bit rate                       : 1 863 Kbps
Width                          : 740 pixels
Height                         : 416 pixels
Display aspect ratio           : 16:9
Original display aspect ratio  : 16:9
Frame rate mode                : Constant
Frame rate                     : 25.000 fps
Color space                    : YUV
Chroma subsampling             : 4:2:0
Bit depth                      : 8 bits
Scan type                      : Progressive
Bits/(Pixel*Frame)             : 0.242
Stream size                    : 140 MiB (93%)
Writing library                : x264 core 120 r2151 a3f4407
Encoding settings              : cabac=1 / ref=3 / deblock=1:0:0 / analyse=0x1:0x111 / me=hex / subme=7 / psy=1 / psy_rd=1.00:0.00 / mixed_ref=0 / me_range=16 / chroma_me=1 / trellis=1 / 8x8dct=0 / cqm=0 / deadzone=21,11 / fast_pskip=1 / chroma_qp_offset=-2 / threads=18 / sliced_threads=0 / nr=0 / decimate=1 / interlaced=0 / bluray_compat=0 / constrained_intra=0 / bframes=3 / b_pyramid=0 / b_adapt=1 / b_bias=0 / direct=1 / weightb=0 / open_gop=1 / weightp=2 / keyint=250 / keyint_min=25 / scenecut=40 / intra_refresh=0 / rc_lookahead=40 / rc=crf / mbtree=1 / crf=23.0 / qcomp=0.60 / qpmin=0 / qpmax=69 / qpstep=4 / ip_ratio=1.25 / aq=1:1.00
Language                       : English
Encoded date                   : UTC 2016-06-10 19:02:11
Tagged date                    : UTC 2016-06-10 19:02:11

Audio
ID                             : 2
Format                         : AAC
Format/Info                    : Advanced Audio Codec
Format profile                 : LC
Codec ID                       : 40
Duration                       : 10mn 30s
Bit rate mode                  : Variable
Bit rate                       : 128 Kbps
Channel(s)                     : 2 channels
Channel positions              : Front: L R
Sampling rate                  : 44.1 KHz
Compression mode               : Lossy
Stream size                    : 9.61 MiB (6%)
Language                       : English
Encoded date                   : UTC 2016-06-10 19:02:11
Tagged date                    : UTC 2016-06-10 19:02:11

DETALE TORRENTA:[ ]
Podziękowania,
 


Podobne pliki
Nie znaleziono podobnych tytułów!


Komentarze