Witaj Gościu! jeżeli widzisz ten dymek to znaczy że nie jesteś zarejestrowany/zalogowany. Kliknij by się zarejestrować. Rejestracja zajmie mniej niż 30 sekund, a dzięki niej zyskasz możliwość pobierania, komentowania oraz dodawania torrentów !



User:      Hasło:     

MENU


Kategorie


FACEBOOK


PROGRAMY


WspółPraca
Poradnik
KAN


ZAGŁOSUJ NA NAS


Torrent



Torrent: Zaklinacz koni - The Horse Whisperer (1998) [DVDRip XviD]-NN [Lektor PL] [D T A 26]
Dodał:  Adam26
Data: 12-07-2018
Rozmiar: 2.66 GB
Seed: 1
Peer: 1
Kondycja:
Zaloguj się aby pobrać


Kategoria:  Filmy DivX/XviD
Gatunek: Melodramat
Zaakceptował: Nie wymagał akceptacji
Liczba pobrań: 14
Liczba komentarzy: 0
Ostatnia aktualizacja: 2018-07-12 15:22:50

OPIS:

Pobrałeś/aś podziękuj To nic nie kosztuje a Motywuje!!

2 lektorów PL

LEKTORA ZMIENIAMY NA 2 SPOSOBY

1 PROGRAMEM VIDEO MEDIA CENTER

2 PRZYCISKEM AUDIO NA PILOCIE OD DVD



produkcja:USA
reżyseria:Robert Redford
scenariusz:Eric Roth Richard LaGravenese
premiera:2 października 1998 (Polska) 15 maja 1998 (świat)
gatunek:Melodramat




http://www.filmweb.pl/film/Zaklinacz+koni-1998-204



14-letnia Grace podczas przejażdżki konnej uległa poważnemu wypadkowi. Straciła nogę, a jej ukochany koń Pielgrzym został okaleczony. Dziewczynka oskarża rodziców o swoje kalectwo. Jej matka, Annie, wierzy, że córce pomoże uzdrowienie jej zdziczałego konia. Zawozi Grace i Pielgrzyma na rancho Toma Bookera, który leczy konie po traumatycznych przejściach. W ciągu miesięcy spędzonych na jego farmie Grace odzyskuje radość życia, a jej koń poddaje się w końcu zaklęciom Toma. Jego magii ulega także Annie, która zakochuje się w niezwykłym kowboju.



Robert Redford ....... Tom Booker
Kristin Scott Thomas ....... Annie MacLean
Sam Neill ....... Robert MacLean
Dianne Wiest ....... Diane Booker
Scarlett Johansson ....... Grace MacLean
Chris Cooper ....... Frank Booker
Cherry Jones ....... Liz Hammond
Ty Hillman ....... Joe Booker



File size : 2.66 GiB
Duration : 2 h 42 min
Overall bit rate : 2 342 kb/s

Video
Codec ID/Hint : XviD
Duration : 2 h 42 min
Bit rate : 1 941 kb/s
Width : 720 pixels
Height : 304 pixels
Display aspect ratio : 2.35:1
Frame rate : 25.000 FPS
Stream size : 2.20 GiB (83%)

Audio x 2
Format : AC-3
Bit rate : 192 kb/s
Channel(s) : 2 channels
Channel positions : Front: L R
Sampling rate : 48.0 kHz
Stream size : 223 MiB (8%)  



DETALE TORRENTA:[ ]
Podziękowania,
 


Podobne pliki
Nie znaleziono podobnych tytułów!


Komentarze