Witaj Gościu! jeżeli widzisz ten dymek to znaczy że nie jesteś zarejestrowany/zalogowany. Kliknij by się zarejestrować. Rejestracja zajmie mniej niż 30 sekund, a dzięki niej zyskasz możliwość pobierania, komentowania oraz dodawania torrentów !

User:      Hasło:     

MENU


Kategorie


FACEBOOK


PROGRAMY


WspółPraca
Poradnik
KAN


ZAGŁOSUJ NA NAS


Torrent



Torrent: Mustang z Dzikiej Doliny - Spirit Stallion Of The Cimarron *2002 *[1080p BluRay x264-BRY][Dubbing PL]
Dodał:  viola62
Data: 28-01-2017
Rozmiar: 4.37 GB
Seed: 0
Peer: 2
Kondycja:
Zaloguj się aby pobrać


Kategoria:  Bajki Pl/Eng

Zaakceptował: Nie wymagał akceptacji
Liczba pobrań: 73
Liczba komentarzy: 2
Ostatnia aktualizacja: 2017-04-11 13:01:05

OPIS:




Oryginalny tytuł: Spirit Stallion of the Cimarron
Produkcja: USA
Gatunek: Animacja, Familijny, Przygodowy
Data premiery: 2002-05-18
Reżyseria: Lorna Cook, Kelly Asbury
Scenariusz: Henry Mayo, John Fusco
Muzyka: Hans Zimmer, Steve Jablonsky





http://www.filmweb.pl/film/Mustang+z+Dzikiej+Doliny-2002-32363

http://www.imdb.com/title/tt0166813/?ref_=fn_al_tt_1

http://fdb.pl/film/6246-mustang-z-dzikiej-doliny





Spirit - młody, dziki mustang wyrusza na wyprawę pełną przygód. Musi dokonać rzeczy niemal niemożliwych: uratować swą ziemię i odzyskać wolność, Podczas pasjonującej i wymagającej wielkiej odwagi podróży przez prerie Dzikiego Zachodu. Spirit zyskuje młodego, odważnego przyjaciela z plemienia Lakota, przechytrza nieustępliwych żołnierzy i zakochuje się w pięknej klaczy o imieniu Rain. Niezapomniana, zapierająca dech w piersiach historia o odkrywaniu prawdziwego bohaterstwa w samym sobie, "Mustang z dzikiej doliny" jest jednym z najpiękniejszych i najbardziej ekscytujących, pełnometrażowych filmów rysunkowych, jakie kiedykolwiek zrobiono.





Maciej Balcar jako narrator i wykonawca piosenek
Jacek Kopczyński jako Wartki Potok





Format                      : Matroska
Format version              : Version 4 / Version 2
File size                   : 4.37 GiB
Duration                    : 1h 23mn
Overall bit rate            : 7 495 Kbps
Movie name                  : Mustang z Dzikiej Doliny
Encoded date                : UTC 2015-04-01 04:44:06
Writing application         : mkvmerge v6.6.0 ('The Edge Of The In Between' built on Dec  1 2013 17:55:00
Writing library             : libebml v1.3.0 + libmatroska v1.4.1
Attachements                : Spirit - Stallion of the Cimarron.jpg

Video
ID                          : 1
Format                      : AVC
Format/Info                 : Advanced Video Codec
Format profile              : [email protected]
Format settings, CABAC      : Yes
Format settings, ReFrames   : 5 frames
Codec ID                    : V_MPEG4/ISO/AVC
Duration                    : 1h 23mn
Bit rate                    : 6 854 Kbps
Width                       : 1 920 pixels
Height                      : 824 pixels
Display aspect ratio        : 2.35:1
Frame rate mode             : Constant
Frame rate                  : 23.976 fps
Color space                 : YUV
Chroma subsampling          : 4:2:0
Bit depth                   : 8 bits
Scan type                   : Progressive
Bits/(Pixel*Frame)          : 0.181
Stream size                 : 3.91 GiB (89%)
Title                       : AMIABLE
Writing library             : x264 core 142 r2409 d6b4e63
Encoding settings           : cabac=1 / ref=5 / deblock=1:2:1 / analyse=0x3:0x113 / me=umh / subme=8 / psy=1 / psy_rd=0.40:0.00 / mixed_ref=1 / me_range=16 / chroma_me=1 / trellis=1 / 8x8dct=1 / cqm=0 / deadzone=21,11 / fast_pskip=0 / chroma_qp_offset=-2 / threads=12 / lookahead_threads=2 / sliced_threads=0 / nr=0 / decimate=1 / interlaced=0 / bluray_compat=0 / constrained_intra=0 / bframes=3 / b_pyramid=2 / b_adapt=2 / b_bias=0 / direct=3 / weightb=1 / open_gop=0 / weightp=2 / keyint=240 / keyint_min=24 / scenecut=40 / intra_refresh=0 / rc_lookahead=50 / rc=2pass / mbtree=1 / bitrate=6854 / ratetol=1.0 / qcomp=0.60 / qpmin=0 / qpmax=69 / qpstep=4 / cplxblur=20.0 / qblur=0.5 / ip_ratio=1.40 / aq=1:0.60
Language                    : English
Default                     : No
Forced                      : No

Audio
ID                          : 2
Format                      : AC-3
Format/Info                 : Audio Coding 3
Mode extension              : CM (complete main)
Format settings, Endianness : Big
Codec ID                    : A_AC3
Duration                    : 1h 23mn
Bit rate mode               : Constant
Bit rate                    : 640 Kbps
Channel(s)                  : 6 channels
Channel positions           : Front: L C R, Side: L R, LFE
Sampling rate               : 48.0 KHz
Compression mode            : Lossy
Delay relative to video     : 2s 0ms
Stream size                 : 382 MiB (9%)
Title                       : PL
Language                    : Polish
Default                     : No
Forced                      : No


PS/ POBRALES --------. SEEDUJ /THX/

DETALE TORRENTA:[ ]
Podziękowania,
 




Komentarze
03/06/2018 22.38.16
matiart
Świetna bajka, niestety nie możemy obejrzeć do końca, rwie się w połowie, ponieważ pobrało 99,97 procent i nie pobiera dalej. Może ktoś się orientuje co się dzieje. Czekam już koło miesiąca aż ukończy pobieranie.
28/01/2017 17.18.46
Depesz11
Bajeczki, które aż chce się oglądać. Dziekować.