Witaj Gościu! jeżeli widzisz ten dymek to znaczy że nie jesteś zarejestrowany/zalogowany. Kliknij by się zarejestrować. Rejestracja zajmie mniej niż 30 sekund, a dzięki niej zyskasz możliwość pobierania, komentowania oraz dodawania torrentów !

User:      Hasło:     

MENU


Kategorie


FACEBOOK


PROGRAMY


WspółPraca
Poradnik
KAN


ZAGŁOSUJ NA NAS


Torrent



Torrent: Beyond the Edge *2018* [720p] [BRRip] [XviD] [AC3-XVID] [ENG]
Dodał:  verbatim
Data: 09-04-2018
Rozmiar: 3.30 GB
Seed: 1
Peer: 1
Kondycja:
Zaloguj się aby pobrać


Kategoria:  Filmy DivX/XviD
Gatunek: Akcja / Sensacyjny
Zaakceptował: Nie wymagał akceptacji
Liczba pobrań: 106
Liczba komentarzy: 0
Ostatnia aktualizacja: 2018-07-14 20:20:13

OPIS:



Produkcja: Rosja
Gatunek: Fantasy, Przygodowy, Akcja
Premiera: 1 marca 2018 (Rosja)
Reżyseria: Francesco Cinquemani
Scenariusz: Francesco Cinquemani, Mikhail Zubko



http://www.imdb.com/title/tt5629524/



Współczesna Moskwa. Utalentowany hazardzista gromadzi zespół ludzi o nadprzyrodzonych mocach, aby wygrać w kasynie. Ale znajdują o wiele silniejszego mistycznego rywala.



★ Miloš Biković .... Maykl
★ Lyubov Aksyonova .... Nika
★ Evgeniy Stychkin .... Toni
★ Sergey Astakhov .... Viktor
★ Yuriy Chursin .... Kevin
★ Aristarkh Venes .... Erik
★ Petar Zekavica .... Aleks
★ Riccardo Cicogna .... Uliczny artysta



Video
ID : 0
Format : MPEG-4 Visual
Format profile : [email protected]
Format settings, BVOP : No
Format settings, QPel : No
Format settings, GMC : No warppoints
Format settings, Matrix : Default (H.263)
Codec ID : XVID
Codec ID/Hint : XviD
Duration : 1 h 50 min
Bit rate : 3 633 kb/s
Width : 1 280 pixels
Height : 536 pixels
Display aspect ratio : 2.40:1
Frame rate : 23.976 (24000/1001) FPS
Color space : YUV
Chroma subsampling : 4:2:0
Bit depth : 8 bits
Scan type : Progressive
Compression mode : Lossy
Bits/(Pixel*Frame) : 0.221
Stream size : 2.80 GiB (85%)
Writing library : Lavc57.107.100

Audio
ID : 1
Format : AC-3
Format/Info : Audio Coding 3
Codec ID : 2000
Duration : 1 h 50 min
Bit rate mode : Constant
Bit rate : 640 kb/s
Channel(s) : 6 channels
Channel positions : Front: L C R, Side: L R, LFE
Sampling rate : 48.0 kHz
Frame rate : 31.250 FPS (1536 SPF)
Bit depth : 16 bits
Compression mode : Lossy
Stream size : 505 MiB (15%)
Alignment : Aligned on interleaves
Interleave, duration : 42 ms (1.00 video frame)
Interleave, preload duration : 512 ms
Service kind : Complete Main

DETALE TORRENTA:[ ]
Podziękowania, MRJERZYK, Go??




Komentarze